Forum.ArchosFans.com

Unofficial Archos Support Forum
It is currently Tue Oct 24, 2017 6:50 am

All times are UTC+01:00




Post new topic  Reply to topic  [ 1 post ] 
Author Message
PostPosted: Sun Jan 08, 2012 4:20 pm 
Offline
Archos Novice
Archos Novice

Joined: Sun Jan 08, 2012 3:59 pm
Posts: 2
My Archos 7 320G has all the plug-ins installed (Cinema, Podcast and HiDef), but I can only play videos (format avi, codec Xvid) under 720*576, any video file beyond this resolution doesn't work (no mistake pop-up, no image, no sound and seems stiff.
Here's the info I copied from one of the files which I couldn't play:

Format : AVI
Format/Info : Audio Video Interleave
File size : 959 MiB
Duration : 1h 8mn
Overall bit rate : 1 952 Kbps
Writing application : Nandub v1.0rc2
Writing library : Nandub build 1852/release

Video
ID : 0
Format : MPEG-4 Visual
Format profile : Simple@L3
Format settings, BVOP : No
Format settings, QPel : No
Format settings, GMC : No warppoints
Format settings, Matrix : Default (H.263)
Codec ID : XVID
Codec ID/Hint : XviD
Duration : 1h 8mn
Bit rate : 1 494 Kbps
Width : 768 pixels
Height : 576 pixels
Display aspect ratio : 4:3
Frame rate : 25.000 fps
Color space : YUV
Chroma subsampling : 4:2:0
Bit depth : 8 bits
Scan type : Progressive
Compression mode : Lossy
Bits/(Pixel*Frame) : 0.135
Stream size : 734 MiB (77%)
Writing library : XviD 61

Audio
ID : 1
Format : AC-3
Format/Info : Audio Coding 3
Mode extension : CM (complete main)
Codec ID : 2000
Duration : 1h 8mn
Bit rate mode : Constant
Bit rate : 448 Kbps
Channel(s) : 6 channels
Channel positions : Front: L C R, Side: L R, LFE
Sampling rate : 48.0 KHz
Bit depth : 16 bits
Compression mode : Lossy
Stream size : 220 MiB (23%)
Alignment : Split accross interleaves
Interleave, duration : 40 ms (1.00 video frame)
Interleave, preload duration : 500 ms

Thanks a lot


Top
   
Display posts from previous:  Sort by  
Post new topic  Reply to topic  [ 1 post ] 

All times are UTC+01:00


Who is online

Users browsing this forum: No registered users and 2 guests


You cannot post new topics in this forum
You cannot reply to topics in this forum
You cannot edit your posts in this forum
You cannot delete your posts in this forum

Search for:
Jump to:  
Powered by phpBB® Forum Software © phpBB Limited